Download Videohive Giant Afican Snail 2 Free Nulled

FREE DOWNLOAD links for Giant Afican Snail 2 is BELOW - click on the RED BUTTON. Logged-in users can see links to download above the main picture.

Category: Videohive | Stock Footage
Tags: Videohive | Add Ons | nulled | free download | theme | script | rip | Giant | Afican | Snail
In archive: 2016 | April 2016 | 21.April 2016


Videohive Giant Afican Snail 2 free download

Buy this item



Giant Afican Snail 24K Video down scale to FHD 1920×1080 , 29.94P

DetailsVideo Encoding : PhotoJPEGCodec ID : qtFile size : 513 MiBDuration : 27s 760msOverall bit rate mode : VariableOverall bit rate : 155 Mbps

VideoFormat : JPEGCodec ID : jpegDuration : 27s 760msBit rate mode : VariableBit rate : 155 MbpsWidth : 1 920 pixelsHeight : 1 080 pixelsDisplay aspect ratio : 16:9Frame rate mode : ConstantFrame rate : 29.970 fpsColor space : YUVChroma subsampling : 4:2:2Bit depth : 8 bitsCompression mode : LossyBits/(Pixel*Frame) : 2.495Stream size : 513 MiB (100%)

Source: videohive.net
Report this item


Free download

Show FREE DOWNLOAD links



Related free downloads

Free download Themeforest Kahuna - Giant Multipurpose Email + Builder Access

Download Themeforest Kahuna - Giant Multipurpose Email + Builder Access Free Nulled

4 VERIFED DOWNLOAD LINKS
Category: Themeforest | Marketing
Tags: Themeforest | Marketing | nulled | free download | theme | script | rip | Kahuna | Giant | Multipurpose | Email | Builder | Access
Archives: 2016 | April 2016 | 20.April 2016

Kahuna – The Drag&Drop Email Template BuilderKahuna is the best drag&drop email builder available online. 100% compatible with Mailch...wsUpdate HistoryV1.1 – Mar 25th, 2016Fixed DocumentationMinor bug fixesCode OptimizationV1.0 – Mar 5th, 2016Official Release
Free download Graphicriver Giant Outdoor Billboard Mock-Up

Download Graphicriver Giant Outdoor Billboard Mock-Up Free Nulled

Category: Graphicriver | Graphics
Tags: Themeforest | PSD Templates | nulled | free download | theme | script | rip | Giant | Outdoor | Billboard | Mock-up
Archives: 2016 | April 2016 | 20.April 2016

Tin Giant Outdoor Billboard Mock-Up to professionally present your designs.Features1 PSD (Photoshop) file. Fully editable ...tionals with one click.Help File.*The images of the samples are not included.If you like it, don´t forget to rate, thank you.
Free download Graphicriver Stone Giant 2D Game Character Sprites 24

Download Graphicriver Stone Giant 2D Game Character Sprites 24 Free Nulled

Category: Graphicriver | Game Assets
Tags: Photodune | Misc | nulled | free download | theme | script | rip | Stone | Giant | Game | Character | Sprites
Archives: 2016 | April 2016 | 20.April 2016

ANIMATIONS PREVIEW:Character Spritesheets for your mobile game assetsThis assets is for developers who want to cre...e Cartoon Mascot? Download here: SeeMore…If you have Some concern Please contact me here:http://graphicriver.net/user/pasilan
Free download Videohive Giant Afican Snail 1

Download Videohive Giant Afican Snail 1 Free Nulled

Category: Videohive | Stock Footage
Tags: Videohive | Add Ons | nulled | free download | theme | script | rip | Giant | Afican | Snail
Archives: 2016 | April 2016 | 21.April 2016

Giant Afican Snail 14K Video down scale to FHD 1920×1080 , 29.94PDetailsVideo Encoding : PhotoJPEGCodec ID ...de : LossyBits/(Pixel*Frame) : 3.775Stream size : 700 MiB (100%)


Free download Graphicriver Monster Ice Giant 2D Game Character Sprites 157

Download Graphicriver Monster Ice Giant 2D Game Character Sprites 157 Free Nulled

Category: Graphicriver | Game Assets
Tags: Graphicriver | Isolated Objects | nulled | free download | theme | script | rip | Monster | Ice | Giant | Game | Character | Sprites | 157
Archives: 2016 | April 2016 | 21.April 2016

ANIMATIONS PREVIEW:Get 3 Awesome Monster Ice Giant 2D Game Characters as a Characters for your games.This asse...e Cartoon Mascot? Download here: SeeMore…If you have Some concern Please contact me here:http://graphicriver.net/user/pasilan
Free download Graphicriver The Giant Fish

Download Graphicriver The Giant Fish Free Nulled

Category: Graphicriver | Vectors
Tags: Themeforest | eCommerce | nulled | free download | theme | script | rip | The | Giant | Fish
Archives: 2016 | April 2016 | 22.April 2016

Illustration of giant mythological creature floating in a ocean drawn in medieval book style as allegory of ancient natural sciences. EPS10, A...e or delete any layer. All images fully editable. Images contains transparency effects. No gradient meshes used. High resolution PNG 4000*4000
Free download Photodune Helix pomatia also Roman snail, Burgundy snail

Download Photodune Helix pomatia also Roman snail, Burgundy snail Free Nulled

Category: Photodune | Misc
Tags: Animal | Antenna | background | Brown | burgundy | Burgundy snail | Closeup | Cooking | Edible | escargot | European | Farm | Food | Forest | Garden | gastropod | Green | Helix | Helix pomatia | House | Land | Life | Macro | mollusk | Moss | Nasty | Natural | Nature | Outdoor | parasite | pomatia | Roman | Roman snail | shell | Shiny | Slime | slimy | Slow | Small | Snail | speed | Spiral | Wet | White | Wild | Wildlife | Photodune | Misc | nulled | free download | theme | script | rip | Helix | Also | Roman | burgundy
Archives: 2017 | October 2017 | 15.October 2017

Helix pomatia also Roman snail, Burgundy snail, edible snail or escargot, is a species of large, edible, air-breathing land snail, a terrestrial pulmonate gastropod mollusk in the family Helicidae.

Login Free register

Search Free Nulled Themes

Free Nulled Themes Archives

  • Mon
  • Tue
  • Wed
  • Thu
  • Fri
  • Sat
  • Sun
  • 1
  • 2
  • 3
  • 4
  • 5
  • 6
  • 7
  • 8
  • 9
  • 10
  • 11
  • 12
  • 13
  • 14
  • 15
  • 16
  • 17
  • 18
  • 19
  • 20
  • 21
  • 22
  • 23
  • 24
  • 25
  • 26
  • 27
  • 28
  • 29
  • 30